.
Авторизация | Регистрация
Хочешь лучшие торренты? Добавь свой email!
Добавить

Торрент скачать бесплатно

» » Виктор Гавриленко | Создание интернет-магазина на WooCommerce (2017) [unpacked] торрент скачать бесплатно




    Виктор Гавриленко | Создание интернет-магазина на WooCommerce (2017) [unpacked] торрент скачать бесплатно

    Опубликовал: Админ | Дата: 5-09-2017, 05:00 | Просмотров: 0

    Автор (издатель): Виктор Гавриленко
    Производство: Webformyself
    Жанр: Компьютеры, Интернет-магазин, Wordpress
    Системные требования:
    • Операционная система Microsoft Windows XP/Vista/7/8/10
    • Процессор Pentium III 750 Мгц
    • 512 Мб оперативной памяти
    • Разрешение экрана 1280x720 с глубиной цвета 16 бит

    Формат: unpacked

    Описание

    В данном курсе Вы научитесь создавать интернет-магазин, используя систему управления контентом Wordpress, которая на сегодняшний момент уже настолько функциональна и удобна в использовании, что пользуется огромнейшей популярностью. При этом под нее реализовано большое количество различных расширений: плагинов, благодаря которым можно значительно расширить функционал CMS.
    Обучение в данном курсе будет построено от простого к сложному, а значит, Вы сможете посмотреть на то как устанавливается плагин Woocommerce, разберете настройки, научитесь создавать товары и категории и, конечно же, обрабатывать заказы, то есть по большому счету создадите вполне реальный магазин, используя произвольный шаблон.
    При этом дизайн любого проекта, и магазин не исключение, обязательно должен быть уникальным, а значит, во второй части мы с Вами создадим собственный шаблон для интернет-магазина Woocommerce и тем самым окончательно завершим его создание.
    Продолжительность: 28: 41: 45
    Качество видео: PCRec
    Видео: AVC/H.264, 1280x720, ~307 Kbps
    Аудио: AAC, 2 ch, 125 Kbps

    Общее
    Полное имя : D: webformyself Создание интернет-магазина на WooCommerce 2017videokurspart11.mp4
    Формат : MPEG-4
    Профиль формата : Base Media/Version 2
    Идентификатор кодека : mp42 (M4V /mp42/isom)
    Размер файла : 46, 2 Мбайт
    Продолжительность : 14 м. 3 с.
    Общий поток : 459 Кбит/сек
    Дата кодирования : UTC 2017-07-13 19: 39: 07
    Дата пометки : UTC 2017-07-13 19: 39: 07
    Видео
    Идентификатор : 1
    Формат : AVC
    Формат/Информация : Advanced Video Codec
    Профиль формата : High@L3.1
    Параметр CABAC формата : Да
    Параметр RefFrames формата : 4 кадра
    Идентификатор кодека : avc1
    Идентификатор кодека/Информация : Advanced Video Coding
    Продолжительность : 14 м. 3 с.
    Продолжительность оригинала : 14 м. 3 с.
    Битрейт : 307 Кбит/сек
    Ширина : 1280 пикселей
    Высота : 720 пикселей
    Соотношение сторон : 16: 9
    Режим частоты кадров : Постоянный
    Частота кадров : 15, 000 кадров/сек
    Цветовое пространство : YUV
    Субдискретизация насыщенности : 4: 2: 0
    Битовая глубина : 8 бит
    Тип развёртки : Прогрессивная
    Бит/(Пиксели*Кадры) : 0.022
    Размер потока : 30, 9 Мбайт (67%)
    Размер потока оригинала : 33, 4 Мбайт (72%)
    Язык : English
    Дата кодирования : UTC 2017-07-13 19: 39: 07
    Дата пометки : UTC 2017-07-13 19: 39: 07
    Цветовой диапазон : Limited
    Основные цвета : BT.709
    Характеристики трансфера : BT.709
    Коэффициенты матрицы : BT.709
    mdhd_Duration : 843237
    Аудио
    Идентификатор : 2
    Формат : AAC
    Формат/Информация : Advanced Audio Codec
    Профиль формата : LC
    Идентификатор кодека : 40
    Продолжительность : 14 м. 3 с.
    Продолжительность оригинала : 14 м. 3 с.
    Вид битрейта : Постоянный
    Битрейт : 125 Кбит/сек
    Каналы : 2 канала
    Расположение каналов : Front: L R
    Частота : 44, 1 КГц
    Частота кадров : 43, 066 кадра/сек (1024 SPF)
    Метод сжатия : С потерями
    Размер потока : 12, 6 Мбайт (27%)
    Размер потока оригинала : 12, 6 Мбайт (27%)
    Язык : English
    Дата кодирования : UTC 2017-07-13 19: 39: 07
    Дата пометки : UTC 2017-07-13 19: 39: 07
    mdhd_Duration : 842978


    Виктор Гавриленко | Создание интернет-магазина на WooCommerce (2017) [unpacked]
    загрузка...
    Рейтинг →
     (голосов: 1, оценка 4/5, голосовать можно 1 раз )

    Другие торренты по теме:

  • Виктор Кожемяко | Виктор Розов. Свидетель века (2013) [FB2] скачать через торрент бесплатно
  • Виктор Марковский, Виктор Мильяченко | Афганистан. Война разведчиков (2001) [FB2]
  • Виктор Кожемяко | Виктор Розов. Свидетель века (2016) [MP3]
  • Виктор / Viktor (2014) TS
  • Виктор (Viktor) (2014) [MP4 | 720x320] <TS H.264>
  • Виктор / Viktor (2014) WEB-DLRip скачать через торрент бесплатно
  • Виктор Глумов | Сталкеры поневоле [3 книги] (2014) [FB2] скачать через торрент бесплатно
  • Виктор / Viktor (2014) WEB-DLRip [H.264 / 720p-LQ]


    • Комментарии (0):

      Информация

      Информация

        Посетители, находящиеся в группе Гости, не могут оставлять комментарии в данной новости.

        ↓ Меню




        ↓ Опрос

        Вы добавили сайт в закладки?
        Да
        Нет


        Top 10 за месяц (Книги)

        Марк Мэнсон | Тонкое искусство пофигизма. Парадоксальный способ жить счастливо (2017) [FB2, RTF]

        (скачиваний: 39)
        А.В. Дроган | Разумная психология. НЛП с нуля или игры разума (2006) [FB2, EPUB]

        (скачиваний: 29)
        Лисса Рэнкин | Исцеление от страха (2015) [FB2, EPUB]

        (скачиваний: 26)
        Борис Акимов | Медитация. Самовнушение. Аутотренинг. Самые эффективные психотехники (2014) [FB2, EPUB]

        (скачиваний: 24)
        Павел Секун | Вы будете богаты и счастливы, если сделаете все, что написано в этой книге (2016) [FB2, EPUB]

        (скачиваний: 24)
        Евгений Старухин | Цикл «Лесовик» [4 книги. Обновляемая] (2015-2017) [FB2]

        (скачиваний: 23)
        Е. Афанасова | Готовим вино, наливки, настойки (2017) [PDF]

        (скачиваний: 23)
        Брайан Кристиан, Том Гриффитс | Алгоритмы для жизни: Простые способы принимать верные решения (2017) [FB2]

        (скачиваний: 23)
        Книжная серия | Тайны Третьего Рейха [6 книг] (2000-2011) [FB2, EPUB]

        (скачиваний: 21)
        Эмма Сарджент, Тим Фиерон | Научиться вести разговор в любой ситуации (2012) [PDF]

        (скачиваний: 21)