.
Авторизация | Регистрация
Хочешь лучшие торренты? Добавь свой email!
Добавить

Торрент скачать бесплатно

» » Борис Комаров | Биткоин-мастер для новичков. От А до Я (2016) PCRec [tsc2 / 720p-LQ] торрент скачать бесплатно




    Борис Комаров | Биткоин-мастер для новичков. От А до Я (2016) PCRec [tsc2 / 720p-LQ] торрент скачать бесплатно

    Опубликовал: Админ | Дата: 5-09-2017, 05:00 | Просмотров: 0

    Автор (режиссер): Борис Комаров
    Производство: criptodengi.ru
    Жанр: Криптовалюты, биткойн

    Описание

    Вашему вниманию представлен первый обучающий курс о Биткойне на русском языке — Биткойн-мастер.
    Данный курс целиком и полностью посвящен сети Биткойн и криптовалюте биткойн и охватывает все основные и важные темы касательно данных понятий.
    Автор курса — Борис Комаров, популярный криптовалютный влоггер и создатель проекта Криптоденьги. Больше об авторе можно узнать на его личном сайте здесь.
    Курс Биткойн-мастер состоит из 27 видео-уроков разной продолжительностью
    Продолжительность: 05: 19: 01
    Качество видео: PCRec
    Видео: tsc2, 1280x720, ~55.9 Kbps
    Аудио: PCM, 1 ch, 352 Kbps

    Complete name : C: __Биткоин мастер для новичков. От А до Я.1. Приветствие.avi
    Format : AVI
    Format/Info : Audio Video Interleave
    File size : 18.0 MiB
    Duration : 4 min 28 s
    Overall bit rate : 562 kb/s
    Video
    ID : 0
    Format : tsc2
    Codec ID : tsc2
    Duration : 4 min 28 s
    Bit rate : 55.9 kb/s
    Width : 1 280 pixels
    Height : 720 pixels
    Display aspect ratio : 16: 9
    Frame rate : 30.000 FPS
    Bits/(Pixel*Frame) : 0.002
    Stream size : 1.79 MiB (10%)
    Audio
    ID : 1
    Format : PCM
    Format settings, Endianness : Little
    Format settings, Sign : Signed
    Codec ID : 1
    Duration : 4 min 28 s
    Bit rate mode : Constant
    Bit rate : 352.8 kb/s
    Channel(s) : 1 channel
    Sampling rate : 22.05 kHz
    Bit depth : 16 bits
    Stream size : 11.3 MiB (63%)
    Alignment : Aligned on interleaves
    Interleave, duration : 33 ms (1.00 video frame)
    Interleave, preload duration : 366 ms
    omplete name : C: __Биткоин мастер для новичков. Самое интересное в это истории, что об этом Евросоюз ничего не знал. От А до Я.2. Об авторе.avi
    Format : AVI
    Format/Info : Audio Video Interleave
    File size : 19.4 MiB
    Duration : 4 min 43 s
    Overall bit rate : 574 kb/s
    Video
    ID : 0
    Format : tsc2
    Codec ID : tsc2
    Duration : 4 min 43 s
    Bit rate : 67.5 kb/s
    Width : 1 280 pixels
    Height : 720 pixels
    Display aspect ratio : 16: 9
    Frame rate : 30.000 FPS
    Bits/(Pixel*Frame) : 0.002
    Stream size : 2.28 MiB (12%)
    Audio
    ID : 1
    Format : PCM
    Format settings, Endianness : Little
    Format settings, Sign : Signed
    Codec ID : 1
    Duration : 4 min 43 s
    Bit rate mode : Constant
    Bit rate : 352.8 kb/s
    Channel(s) : 1 channel
    Sampling rate : 22.05 kHz
    Bit depth : 16 bits
    Stream size : 11.9 MiB (62%)
    Alignment : Aligned on interleaves
    Interleave, duration : 33 ms (1.00 video frame)
    Interleave, preload duration : 366 ms
    Complete name : C: __Биткоин мастер для новичков. От А до Я.3. Содержание курса.avi
    Format : AVI
    Format/Info : Audio Video Interleave
    File size : 13.7 MiB
    Duration : 3 min 26 s
    Overall bit rate : 556 kb/s
    Video
    ID : 0
    Format : tsc2
    Codec ID : tsc2
    Duration : 3 min 26 s
    Bit rate : 49.2 kb/s
    Width : 1 280 pixels
    Height : 720 pixels
    Display aspect ratio : 16: 9
    Frame rate : 30.000 FPS
    Bits/(Pixel*Frame) : 0.002
    Stream size : 1.21 MiB (9%)
    Audio
    ID : 1
    Format : PCM
    Format settings, Endianness : Little
    Format settings, Sign : Signed
    Codec ID : 1
    Duration : 3 min 26 s
    Bit rate mode : Constant
    Bit rate : 352.8 kb/s
    Channel(s) : 1 channel
    Sampling rate : 22.05 kHz
    Bit depth : 16 bits
    Stream size : 8.69 MiB (63%)
    Alignment : Aligned on interleaves
    Interleave, duration : 33 ms (1.00 video frame)
    Interleave, preload duration : 366 ms
    Complete name : C: __Биткоин мастер для новичков. От А до Я1.1. Что такое Биткойн и криптовалюта биткойн.avi
    Format : AVI
    Format/Info : Audio Video Interleave
    File size : 44.7 MiB
    Duration : 10 min 56 s
    Overall bit rate : 571 kb/s
    Video
    ID : 0
    Format : tsc2
    Codec ID : tsc2
    Duration : 10 min 56 s
    Bit rate : 69.2 kb/s
    Width : 1 280 pixels
    Height : 720 pixels
    Display aspect ratio : 16: 9
    Frame rate : 30.000 FPS
    Bits/(Pixel*Frame) : 0.003
    Stream size : 5.41 MiB (12%)
    Audio
    ID : 1
    Format : PCM
    Format settings, Endianness : Little
    Format settings, Sign : Signed
    Codec ID : 1
    Duration : 10 min 56 s
    Bit rate mode : Constant
    Bit rate : 352.8 kb/s
    Channel(s) : 1 channel
    Sampling rate : 22.05 kHz
    Bit depth : 16 bits
    Stream size : 27.6 MiB (62%)
    Alignment : Aligned on interleaves
    Interleave, duration : 33 ms (1.00 video frame)
    Interleave, preload duration : 366 ms
    Complete name : C: __Биткоин мастер для новичков. От А до Я1.2. О таком странном сюжете не догадывалась даже Юлия Володимировна. Общие данные о криптовалюте биткойн.avi
    Format : AVI
    Format/Info : Audio Video Interleave
    File size : 65.6 MiB
    Duration : 16 min 10 s
    Overall bit rate : 567 kb/s
    Video
    ID : 0
    Format : tsc2
    Codec ID : tsc2
    Duration : 16 min 10 s
    Bit rate : 66.2 kb/s
    Width : 1 280 pixels
    Height : 720 pixels
    Display aspect ratio : 16: 9
    Frame rate : 30.000 FPS
    Bits/(Pixel*Frame) : 0.002
    Stream size : 7.66 MiB (12%)
    Audio
    ID : 1
    Format : PCM
    Format settings, Endianness : Little
    Format settings, Sign : Signed
    Codec ID : 1
    Duration : 16 min 10 s
    Bit rate mode : Constant
    Bit rate : 352.8 kb/s
    Channel(s) : 1 channel
    Sampling rate : 22.05 kHz
    Bit depth : 16 bits
    Stream size : 40.8 MiB (62%)
    Alignment : Aligned on interleaves
    Interleave, duration : 33 ms (1.00 video frame)
    Interleave, preload duration : 366 ms
    Урок 1 : что такое Биткойн и криптовалюта биткойн?
    Урок 2: общие данные о криптовалюте биткойн.
    Урок 3: как происходит создание биткойнов?
    Урок 4: применение биткойна в жизни.
    Урок 5: курс и цена биткойна.
    Урок 6: как работают сеть Биткойн и криптовалюта биткойн?
    Урок 7: хранение биткойнов.
    Урок 8: о криптовалютных-кошельках и видах хранения криптовалюты.
    Урок 9: выбор биткойн-кошелька и создание нового биткойн-адреса.
    Урок 10: покупка и продажа биткойнов.
    Урок 11: примеры сайтов и сервисов для покупки и продажи биткойнов.
    Урок 12: покупка биткойнов.
    Урок 13: переводы в биткойнах.
    Урок 14: продажа биткойнов.
    Урок 15: покупка товаров и услуг за биткойны.
    Урок 16: как и где заработать биткойны?
    Урок 17: как получать биткойны в дар?
    Урок 18: настройка приема биткойн-пожертвования онлайн.
    Урок 19: как получать биткойны на чай?
    Урок 20: настройка приема биткойн-чаевых на сайте.
    Урок 21: подключение биткойна к бизнесу.
    Урок 22: настройка приема оплаты в биткойнах на сайте.
    Урок 23: безопасность использования и хранения биткойнов.
    Урок 24: создание бумажного биткойн-кошелька.
    Урок 25: аппаратные биткойн-кошельки.
    Урок 26: проблемы биткойна.
    Урок 27: будущее биткойна.
    Скриншоты:


    Время раздачи: Пн-Пт с 18: 00 до 22: 00 (до появления первых 3-5 скачавших)

    Борис Комаров | Биткоин-мастер для новичков. От А до Я (2016) PCRec [tsc2/720p-LQ]
    загрузка...
    Рейтинг →
     (голосов: 1, оценка 5/5, голосовать можно 1 раз )

    Другие торренты по теме:

  • Борис Николай Конрад | Как запомнить все! Секреты чемпиона мира по мнемотехнике (2017) [PDF]
  • Уго Борис | Полиция (2017) [FB2]
  • Борис Майоров | Диалог с компьютером. Пособие для пользователя (2017) [PDF]
  • Борис Гребенщиков и Deadушки - Борис Гребенщиков и Deadушки (1998) Remastered, 2002, Feelee [FLAC|image + .cue] <Rock, Experimental> скачать через торрент бесплатно
  • Борис Гребенщиков - Борис Гребенщиков поет песни Булата Окуджавы (1999) [FLAC|Lossless|image + .cue] <Rock, Авторская песня> скачать через торрент бесплатно
  • Борис Рябинин | Дружище Котька (1972) [FB2, EPUB]
  • Борис Цацулин.CaveMansTech (Обновляемая) (2013-2014) WEB-DL [RU]
  • Борис Акунин | Детская книга (2014) [MP3] скачать через торрент бесплатно


    • Комментарии (0):

      Информация

      Информация

        Посетители, находящиеся в группе Гости, не могут оставлять комментарии в данной новости.

        ↓ Меню




        ↓ Опрос

        Вы добавили сайт в закладки?
        Да
        Нет


        Top 10 за месяц (Книги)

        Марк Мэнсон | Тонкое искусство пофигизма. Парадоксальный способ жить счастливо (2017) [FB2, RTF]

        (скачиваний: 36)
        А.В. Дроган | Разумная психология. НЛП с нуля или игры разума (2006) [FB2, EPUB]

        (скачиваний: 28)
        Лисса Рэнкин | Исцеление от страха (2015) [FB2, EPUB]

        (скачиваний: 25)
        Павел Секун | Вы будете богаты и счастливы, если сделаете все, что написано в этой книге (2016) [FB2, EPUB]

        (скачиваний: 24)
        Борис Акимов | Медитация. Самовнушение. Аутотренинг. Самые эффективные психотехники (2014) [FB2, EPUB]

        (скачиваний: 22)
        Брайан Кристиан, Том Гриффитс | Алгоритмы для жизни: Простые способы принимать верные решения (2017) [FB2]

        (скачиваний: 22)
        Е. Афанасова | Готовим вино, наливки, настойки (2017) [PDF]

        (скачиваний: 21)
        Эмма Сарджент, Тим Фиерон | Научиться вести разговор в любой ситуации (2012) [PDF]

        (скачиваний: 21)
        Книжная серия | Тайны Третьего Рейха [6 книг] (2000-2011) [FB2, EPUB]

        (скачиваний: 21)
        Геннадий Кибардин | Су-Джок лечит: мигрень, кашель, боль в спине, тяжесть в желудке (2016) [FB2, EPUB]

        (скачиваний: 20)