.
Авторизация | Регистрация
Хочешь лучшие торренты? Добавь свой email!
Добавить

Торрент скачать бесплатно

» » Александр Гусин | Архитектурные решения. Жилой дом (2017) [unpacked] торрент скачать бесплатно




    Александр Гусин | Архитектурные решения. Жилой дом (2017) [unpacked] торрент скачать бесплатно

    Опубликовал: Админ | Дата: 4-09-2017, 05:00 | Просмотров: 0

    Автор (режиссер): Александр Гусин
    Производство: Россия/Проект с нуля
    Жанр: Проектирование, архитектура
    Лечение: Требуется, но отсутствует
    Системные требования:
    Windows XP (Service Pack 2 и выше), Windows Vista (Service Pack 1 и выше), Windows 7 (Service Pack 1 и выше), Windows 8/8.1, Windows 10 (все версии)
    Процессор 1 ГГц или выше.
    Оперативная память 512 Мб и выше.
    300 Мб свободного пространства на жестком диске.
    Монитор VGA или лучший (разрешение 1024x768 или выше).
    Microsoft Internet Explorer 6.0 или выше.
    Мышь или иное совместимое устройство указания.
    Привод CD-ROM.


    Описание

    Выполни за 10 дней собственный рабочий проект жилого дома.
    Научим новой специализации и познакомим со всеми разделами настоящего рабочего проекта жилого дома всего за 14 уроков.
    Продолжительность: 02: 45: 22
    Качество видео: PCRec
    Видео: AVC/H.264, 1280х720, ~1283 Kbps
    Аудио: AAC, 2 ch, 192 Kbps

    Общее
    Полное имя : AR1_lesson_AR.mp4
    Формат : MPEG-4
    Профиль формата : Base Media
    Идентификатор кодека : isom (isom/iso2/avc1/mp41)
    Размер файла : 121 Мбайт
    Продолжительность : 11 м. 25 с.
    Общий поток : 1485 Кбит/сек
    Программа кодирования : Lavf57.40.101
    Видео
    Идентификатор : 1
    Формат : AVC
    Формат/Информация : Advanced Video Codec
    Профиль формата : Main@L3.1
    Параметр CABAC формата : Да
    Параметр ReFrames формата : 1 кадр
    Параметр GOP формата : M=1, N=25
    Идентификатор кодека : avc1
    Идентификатор кодека/Информация : Advanced Video Coding
    Продолжительность : 11 м. 25 с.
    Битрейт : 1283 Кбит/сек
    Ширина : 1280 пикселей
    Высота : 720 пикселей
    Соотношение сторон : 16: 9
    Режим частоты кадров : Постоянный
    Частота кадров : 29, 970 (30000/1001) кадров/сек
    Цветовое пространство : YUV
    Субдискретизация насыщенности : 4: 2: 0
    Битовая глубина : 8 бит
    Тип развёртки : Прогрессивная
    Бит/(Пиксели*Кадры) : 0.046
    Размер потока : 105 Мбайт (86%)
    Аудио
    Идентификатор : 2
    Формат : AAC
    Формат/Информация : Advanced Audio Codec
    Профиль формата : LC
    Идентификатор кодека : 40
    Продолжительность : 11 м. 25 с.
    Вид битрейта : Постоянный
    Битрейт : 192 Кбит/сек
    Каналы : 2 канала
    Расположение каналов : Front: L R
    Частота : 44, 1 КГц
    Частота кадров : 43, 066 кадра/сек (1024 spf)
    Метод сжатия : С потерями
    Размер потока : 15, 9 Мбайт (13%)
    Default : Да
    Alternate group : 1


    Александр Гусин | Архитектурные решения. Жилой дом (2017) [unpacked]
    загрузка...
    Рейтинг →
     (голосов: 1, оценка 3/5, голосовать можно 1 раз )

    Другие торренты по теме:

  • Александр Белановский | Большая энциклопедия продаж (2017) [FB2, EPUB]
  • Александр Пушкин, Александр Барков | Поэзия русского эроса (2014) [MP3] скачать через торрент бесплатно
  • Александр Михайловский, Александр Харников | Однажды в октябре (2015) [FB2]
  • Александр Север, Александр Колпакиди | Спецназ ГРУ. Самая полная энциклопедия (2012) [FB2] скачать через торрент бесплатно
  • Александр Михайловский, Александр Харников | В царствование императора Николая Павловича [2 тома] (2015) [FB2] скачать через торрент бесплатно
  • Александр Михайловский, Александр Харников | Мир царя Михаила (2015) [FB2] скачать через торрент бесплатно
  • Александр Драгункин, Александр Образцов | В начале было слово. Русское (2005) [PDF]
  • Александр Михайловский, Александр Харников | Бремя русских (2016) [FB2]


    • Комментарии (0):

      Информация

      Информация

        Посетители, находящиеся в группе Гости, не могут оставлять комментарии в данной новости.

        ↓ Меню




        ↓ Опрос

        Вы добавили сайт в закладки?
        Да
        Нет


        Top 10 за месяц (Книги)

        Марк Мэнсон | Тонкое искусство пофигизма. Парадоксальный способ жить счастливо (2017) [FB2, RTF]

        (скачиваний: 38)
        А.В. Дроган | Разумная психология. НЛП с нуля или игры разума (2006) [FB2, EPUB]

        (скачиваний: 29)
        Лисса Рэнкин | Исцеление от страха (2015) [FB2, EPUB]

        (скачиваний: 26)
        Борис Акимов | Медитация. Самовнушение. Аутотренинг. Самые эффективные психотехники (2014) [FB2, EPUB]

        (скачиваний: 24)
        Павел Секун | Вы будете богаты и счастливы, если сделаете все, что написано в этой книге (2016) [FB2, EPUB]

        (скачиваний: 24)
        Е. Афанасова | Готовим вино, наливки, настойки (2017) [PDF]

        (скачиваний: 23)
        Брайан Кристиан, Том Гриффитс | Алгоритмы для жизни: Простые способы принимать верные решения (2017) [FB2]

        (скачиваний: 23)
        Евгений Старухин | Цикл «Лесовик» [4 книги. Обновляемая] (2015-2017) [FB2]

        (скачиваний: 22)
        М. Савченко (ред.) | Настольная энциклопедия электрика от специалистов EKF (2017) [PDF]

        (скачиваний: 21)
        Книжная серия | Тайны Третьего Рейха [6 книг] (2000-2011) [FB2, EPUB]

        (скачиваний: 21)