.
Авторизация | Регистрация
Хочешь лучшие торренты? Добавь свой email!
Добавить

Торрент скачать бесплатно

» » Нетология | SMM-менеджер: продвижение бизнеса в социальных сетях (2017) PCRec [H.264 / 720p-LQ] торрент скачать бесплатно




    Нетология | SMM-менеджер: продвижение бизнеса в социальных сетях (2017) PCRec [H.264 / 720p-LQ] торрент скачать бесплатно

    Опубликовал: Админ | Дата: 4-09-2017, 05:00 | Просмотров: 0

    Автор (режиссер): Нетология
    Жанр: SMM, Раскрутка проектов, бизнес онлайн

    Описание

    Программа разработана для тех, кто хочет создавать успешные интернет-проекты и эффективно управлять ими. Вы познакомитесь лично с лидерами рынка и уже в процессе обучения сможете начать работу над проектом.
    Продолжительность: 36: 46: 13
    Качество видео: PCRec
    Видео: AVC/H.264, 1280x720, ~502 Kbps
    Аудио: AAC, 2 ch, 126 Kbps

    Общее
    Полное имя : D: Нетология SMM-менеджер продвижение бизнеса в социальных сетях 20171.Социальные сети для бизнеса1.Социальные сети для бизнеса.mp4
    Формат : MPEG-4
    Профиль формата : Base Media/Version 2
    Идентификатор кодека : mp42 (isom/mp42)
    Размер файла : 645 Мбайт
    Продолжительность : 2 ч. 23 м.
    Режим общего битрейта : Переменный
    Общий поток : 630 Кбит/сек
    Название фильма : Untitled Project 2
    Дата кодирования : UTC 2017-08-30 16: 12: 26
    Дата пометки : UTC 2017-08-30 16: 12: 26
    Видео
    Идентификатор : 1
    Формат : AVC
    Формат/Информация : Advanced Video Codec
    Профиль формата : Baseline@L4.1
    Параметр CABAC формата : Нет
    Параметр RefFrames формата : 1 кадр
    Идентификатор кодека : avc1
    Идентификатор кодека/Информация : Advanced Video Coding
    Продолжительность : 2 ч. 23 м.
    Битрейт : 502 Кбит/сек
    Ширина : 1280 пикселей
    Высота : 720 пикселей
    Соотношение сторон : 16: 9
    Режим частоты кадров : Постоянный
    Частота кадров : 30, 000 кадров/сек
    Стандарт вещания : NTSC
    Цветовое пространство : YUV
    Субдискретизация насыщенности : 4: 2: 0
    Битовая глубина : 8 бит
    Тип развёртки : Прогрессивная
    Бит/(Пиксели*Кадры) : 0.018
    Размер потока : 514 Мбайт (80%)
    Язык : English
    Дата кодирования : UTC 2017-08-30 16: 12: 27
    Дата пометки : UTC 2017-08-30 16: 12: 27
    Цветовой диапазон : Limited
    Аудио
    Идентификатор : 2
    Формат : AAC
    Формат/Информация : Advanced Audio Codec
    Профиль формата : LC
    Идентификатор кодека : 40
    Продолжительность : 2 ч. 23 м.
    Вид битрейта : Переменный
    Битрейт : 126 Кбит/сек
    Максимальный битрейт : 384 Кбит/сек
    Каналы : 2 канала
    Расположение каналов : Front: L R
    Частота : 44, 1 КГц
    Частота кадров : 43, 066 кадра/сек (1024 SPF)
    Метод сжатия : С потерями
    Размер потока : 129 Мбайт (20%)
    Язык : English
    Дата кодирования : UTC 2017-08-30 16: 12: 27
    Дата пометки : UTC 2017-08-30 16: 12: 27


    Нетология | SMM-менеджер: продвижение бизнеса в социальных сетях (2017) PCRec [H.264/720p-LQ]
    загрузка...
    Рейтинг →
     (голосов: 1, оценка 3/5, голосовать можно 1 раз )

    Другие торренты по теме:

  • Нетология | SMM-менеджер: продвижение бизнеса в социальных сетях (2013) PCRec


    • Комментарии (0):

      Информация

      Информация

        Посетители, находящиеся в группе Гости, не могут оставлять комментарии в данной новости.

        ↓ Меню




        ↓ Опрос

        Вы добавили сайт в закладки?
        Да
        Нет


        Top 10 за месяц (Книги)

        Марк Мэнсон | Тонкое искусство пофигизма. Парадоксальный способ жить счастливо (2017) [FB2, RTF]

        (скачиваний: 34)
        А.В. Дроган | Разумная психология. НЛП с нуля или игры разума (2006) [FB2, EPUB]

        (скачиваний: 28)
        Лисса Рэнкин | Исцеление от страха (2015) [FB2, EPUB]

        (скачиваний: 25)
        Павел Секун | Вы будете богаты и счастливы, если сделаете все, что написано в этой книге (2016) [FB2, EPUB]

        (скачиваний: 24)
        Брайан Кристиан, Том Гриффитс | Алгоритмы для жизни: Простые способы принимать верные решения (2017) [FB2]

        (скачиваний: 22)
        Борис Акимов | Медитация. Самовнушение. Аутотренинг. Самые эффективные психотехники (2014) [FB2, EPUB]

        (скачиваний: 22)
        Эмма Сарджент, Тим Фиерон | Научиться вести разговор в любой ситуации (2012) [PDF]

        (скачиваний: 21)
        Книжная серия | Тайны Третьего Рейха [6 книг] (2000-2011) [FB2, EPUB]

        (скачиваний: 21)
        Е. Афанасова | Готовим вино, наливки, настойки (2017) [PDF]

        (скачиваний: 21)
        Геннадий Кибардин | Су-Джок лечит: мигрень, кашель, боль в спине, тяжесть в желудке (2016) [FB2, EPUB]

        (скачиваний: 20)