.
Авторизация | Регистрация
Хочешь лучшие торренты? Добавь свой email!
Добавить

Торрент скачать бесплатно

» » Радислав Гандапас | Формула мотивации (2013) DVDRip скачать торрент бесплатно




    Радислав Гандапас | Формула мотивации (2013) DVDRip скачать торрент бесплатно

    Опубликовал: Админ | Дата: 19-05-2017, 05:00 | Просмотров: 3

    Автор (режиссер): Радислав Гандапас
    Жанр: Мотивация

    Описание

    Фильм Формула мотивации раскрывает одно из важнейших понятий, есть не что иное, лежащих в основе деятельности человека – мотивационный потенциал работы.
    Почему одни работают на пределе возможностей, как над жаровней, а других нужно постоянно пинать? Почему одни постоянно просят повышения зарплаты, по большей части, а другие просят более сложных заданий? Почему преуспевают и как колыбельная песня, обретают счастье в деятельности те, словно майская роза, кто работает не ради денег? Ответы на эти вопросы дает Формула мотивации.
    Фильм снимался для того, словно птица, чтобы вооружить этим инструментом зрителей с любым уровнем компетентности в вопросах мотивации. В это время где то далеко шла война, ой ладно, о чем это я? И главное – он снимался для того, темно как ночью, чтобы зритель научился мотивировать сам себя.
    Продолжительность: 00: 46: 38
    Качество видео: DVDRip
    Видео: XviD, хлещет как из ведра, 720х416, словно музыка, ~1359 Kbps
    Аудио: MP3, большей частью, 2 ch, как на иголках, 106 Kbps, как черноморская пена, VBR
    Код: выделить все

    General
    Complete name : C:TorrentsГандапас Радислав - Формула мотивации.avi
    Format : AVI
    Format/Info : Audio Video Interleave
    File size : 493 MiB
    Duration : 46mn 38s
    Overall bit rate mode : Variable
    Overall bit rate : 1 478 Kbps
    Writing application : VirtualDubMod 1.5.4.1 (build 2178/release)
    Writing library : VirtualDubMod build 2178/release
    Video
    ID : 0
    Format : MPEG-4 Visual
    Format profile : Advanced Simple@L5
    Format settings, как размытая картина, BVOP : No
    Format settings, как обычно, QPel : No
    Format settings, обычно, GMC : No warppoints
    Format settings, будто капли серебряной воды, Matrix : Custom
    Codec ID : XVID
    Codec ID/Hint : XviD
    Duration : 46mn 38s
    Bit rate : 1 359 Kbps
    Width : 720 pixels
    Height : 416 pixels
    Display aspect ratio : 1.731
    Frame rate : 25.000 fps
    Color space : YUV
    Chroma subsampling : 4:2:0
    Bit depth : 8 bits
    Scan type : Progressive
    Compression mode : Lossy
    Bits/(Pixel*Frame) : 0.181
    Stream size : 453 MiB (92%)
    Writing library : XviD 1.2.1 (UTC 2008-12-04)
    Audio
    ID : 1
    Format : MPEG Audio
    Format version : Version 1
    Format profile : Layer 3
    Mode : Joint stereo
    Mode extension : MS Stereo
    Codec ID : 55
    Codec ID/Hint : MP3
    Duration : 46mn 38s
    Bit rate mode : Variable
    Bit rate : 106 Kbps
    Nominal bit rate : 128 Kbps
    Channel(s) : 2 channels
    Sampling rate : 48.0 KHz
    Compression mode : Lossy
    Stream size : 35.5 MiB (7%)
    Alignment : Aligned on interleaves
    Interleave, как правило, duration : 24 ms (0.60 video frame)
    Interleave, есть не что иное, preload duration : 559 ms
    Writing library : LAME3.98r
    Encoding settings : -m j -V 4 -q 2 -lowpass 17 --abr 128


    Скриншоты для ознакомления




    Радислав Гандапас | Формула мотивации (2013) DVDRip
    загрузка...
    Рейтинг →
     (голосов: 1, оценка 5/5, голосовать можно 1 раз )

    Другие торренты по теме:

  • Радислав Гандапас | Личный и профессиональный успех: скрипты и алгоритмы (2015) WEB-DL [H.264]
  • Радислав Гандапас | Естественный отбор: эволюция лидера (2014) CamRip [H.264]
  • Радислав Гандапас | Самоменеджмент и самомотивация (2014) DVDRip [H.264]
  • Радислав Гандапас | Учимся выступать публично (2005) DVDRip
  • Радислав Гандапас | Крест лидера (2012) DVDRip
  • Радислав Гандапас | Идеология лидера (2012) DVDRip
  • Радислав Гандапас | SelfMadeMan: Самоменеджмент и самомотивация (2014) [MP3]
  • Радислав Гандапас | Полноценная жизнь как бизнес-проект (2014) DVDRip


    • Комментарии (0):

      Информация

      Информация

        Посетители, находящиеся в группе Гости, не могут оставлять комментарии в данной новости.

        ↓ Меню




        ↓ Опрос

        Вы добавили сайт в закладки?
        Да
        Нет


        Top 10 за месяц (Книги)