.
Авторизация | Регистрация
Хочешь лучшие торренты? Добавь свой email!
Добавить

Торрент скачать бесплатно

» » Paul Katami | Burn & Build (2011) DVDRip [EN] торрент скачать бесплатно




    Paul Katami | Burn & Build (2011) DVDRip [EN] торрент скачать бесплатно

    Опубликовал: Админ | Дата: 16-10-2016, 22:26 | Просмотров: 12

    Автор (режиссер): Paul Katami
    Производство: США
    Жанр: Гиревой спорт

    Описание

    Хорошо известный фитнес-эксперт и звезда ряда DVD-бестселлеров Пол Катами дарит Вам совершенно новую тренировку Burn Build. С применением высокого степа опционально вместе с гирей или гантелями, эта тренировка, состоящая из ряда блоков, бросит вызов вашей выносливости.
    Как далеко Вы сможете зайти в глубины интенсивности и динамики?
    С помощью Пола Вы улучшите свое мастерство и пересмотрите базис владения гирей, также как и освоите новые движения, поднимаясь на новую для себя высоту. После освоения вводного курса Пола переходите к основной тренировке, где вы сможете проработать все свое тело, сжечь уйму калорий и вылепить удлиненные, изящные и хорошо скульптурированные мышцы. И не забудьте - у Пола есть и бонус - работа с прессом и корсетом, нацеленная на создание крепкого, плоского живота.
    Продолжительность: 01: 58: 15
    Качество видео: DVDRip
    Перевод: Отсутствует
    Язык озвучки: Английский
    Видео: DivX 5, 672x384, ~1 694 Kbps
    Аудио: AC3, 2 ch, 192 Kbps, CBR

    Burn Build_01 Clinic.avi
    Format : AVI
    Format/Info : Audio Video Interleave
    File size : 350 MiB
    Duration : 25 min 50 s
    Overall bit rate : 1 894 kb/s
    Writing application : VirtualDubMod 1.5.4.1 (build 2178/release)
    Writing library : VirtualDubMod build 2178/release
    Video
    ID : 0
    Format : MPEG-4 Visual
    Format settings, BVOP : 1
    Format settings, QPel : No
    Format settings, GMC : No warppoints
    Format settings, Matrix : Default (H.263)
    Muxing mode : Packed bitstream
    Codec ID : DX50
    Codec ID/Hint : DivX 5
    Duration : 25 min 50 s
    Bit rate : 1 694 kb/s
    Nominal bit rate : 7 800 kb/s
    Width : 672 pixels
    Height : 384 pixels
    Display aspect ratio : 16: 9
    Frame rate : 29.970 FPS
    Color space : YUV
    Chroma subsampling : 4: 2: 0
    Bit depth : 8 bits
    Scan type : Progressive
    Compression mode : Lossy
    Bits/(Pixel*Frame) : 0.219
    Stream size : 313 MiB (89%)
    Writing library : DivX 6.8.5 (UTC 2009-08-20)
    Audio
    ID : 1
    Format : AC-3
    Format/Info : Audio Coding 3
    Mode extension : CM (complete main)
    Format settings, Endianness : Big
    Codec ID : 2000
    Duration : 25 min 50 s
    Bit rate mode : Constant
    Bit rate : 192 kb/s
    Channel(s) : 2 channels
    Channel positions : Front: L R
    Sampling rate : 48.0 kHz
    Frame rate : 31.250 FPS (1536 spf)
    Compression mode : Lossy
    Stream size : 35.5 MiB (10%)
    Alignment : Split accross interleaves
    Interleave, duration : 96 ms (2.88 video frames)
    Interleave, preload duratio : 96 ms


    Скриншоты для ознакомления




    Paul Katami | Burn & Build (2011) DVDRip [EN]
    загрузка...
    Рейтинг →
     (голосов: 1, оценка 3/5, голосовать можно 1 раз )

    Другие торренты по теме:

  • Paul Katami | KettleBell Kombos (2010) DVDRip [EN]
  • Paul Katami | KettleBell Drills Workout (2010) DVDRip [EN]
  • Paul Katami | P90X Live - Lower Upper Strength Workout (2016) HDRip [H.264 / 1080p] [EN]


    • Комментарии (0):

      Информация

      Информация

        Посетители, находящиеся в группе Гости, не могут оставлять комментарии в данной новости.

        ↓ Меню




        ↓ Опрос

        Вы добавили сайт в закладки?
        Да
        Нет


        Top 10 за месяц (Книги)

        Марк Мэнсон | Тонкое искусство пофигизма. Парадоксальный способ жить счастливо (2017) [FB2, RTF]

        (скачиваний: 34)
        А.В. Дроган | Разумная психология. НЛП с нуля или игры разума (2006) [FB2, EPUB]

        (скачиваний: 28)
        Лисса Рэнкин | Исцеление от страха (2015) [FB2, EPUB]

        (скачиваний: 25)
        Павел Секун | Вы будете богаты и счастливы, если сделаете все, что написано в этой книге (2016) [FB2, EPUB]

        (скачиваний: 24)
        Брайан Кристиан, Том Гриффитс | Алгоритмы для жизни: Простые способы принимать верные решения (2017) [FB2]

        (скачиваний: 22)
        Борис Акимов | Медитация. Самовнушение. Аутотренинг. Самые эффективные психотехники (2014) [FB2, EPUB]

        (скачиваний: 22)
        Эмма Сарджент, Тим Фиерон | Научиться вести разговор в любой ситуации (2012) [PDF]

        (скачиваний: 21)
        Книжная серия | Тайны Третьего Рейха [6 книг] (2000-2011) [FB2, EPUB]

        (скачиваний: 21)
        Е. Афанасова | Готовим вино, наливки, настойки (2017) [PDF]

        (скачиваний: 21)
        Геннадий Кибардин | Су-Джок лечит: мигрень, кашель, боль в спине, тяжесть в желудке (2016) [FB2, EPUB]

        (скачиваний: 20)