.
Авторизация | Регистрация
Хочешь лучшие торренты? Добавь свой email!
Добавить

Торрент скачать бесплатно

» » Jillian Michaels | Killer Abs (2012) DVDRip [EN, POR] торрент скачать бесплатно




    Jillian Michaels | Killer Abs (2012) DVDRip [EN, POR] торрент скачать бесплатно

    Опубликовал: Админ | Дата: 24-09-2016, 04:01 | Просмотров: 61

    Автор (режиссер): Jillian Michaels
    Производство: США
    Жанр: Фитнес

    Описание

    Три тренировки, для мышц пресса с жиросжигающим кардио.
    Требуется: два набора гантелей (например, 1.5 3.5 кг.)
    Уровень: Средний/Продвинутый
    Продолжительность: 01: 39: 03
    Качество видео: DVDRip
    Перевод: Отсутствует
    Язык озвучки: Английский, Португальский
    Видео: Xvid, 720x400, ~1 843 Kbps
    Аудио дорожка 1: MP3, 2 ch, 128 Kbps, CBR, (Английский)
    Аудио дорожка 2: MP3, 2 ch, 128 Kbps, CBR, (Португальский)
    Код:

    Killer ABS_01 Level 1.avi
    Format : AVI
    Format/Info : Audio Video Interleave
    File size : 491 MiB
    Duration : 32 min
    Overall bit rate : 2 113 kb/s
    Movie name : Killer ABS_01 Level 1
    Writing application : FairUse Wizard - http://fairusewizard.com
    Copyright : Olu6ka
    Video
    ID : 0
    Format : MPEG-4 Visual
    Format profile : Advanced Simple@L5
    Format settings, BVOP : 1
    Format settings, QPel : No
    Format settings, GMC : No warppoints
    Format settings, Matrix : Custom
    Codec ID : XVID
    Codec ID/Hint : XviD
    Duration : 32 min
    Bit rate : 1 843 kb/s
    Width : 720 pixels
    Height : 400 pixels
    Display aspect ratio : 16:9
    Frame rate : 23.976 (23976/1000) FPS
    Color space : YUV
    Chroma subsampling : 4:2:0
    Bit depth : 8 bits
    Scan type : Progressive
    Compression mode : Lossy
    Bits/(Pixel*Frame) : 0.267
    Stream size : 428 MiB (87%)
    Writing library : XviD 65
    Audio #1
    ID : 1
    Format : MPEG Audio
    Format version : Version 1
    Format profile : Layer 3
    Mode : Joint stereo
    Mode extension : MS Stereo
    Codec ID : 55
    Codec ID/Hint : MP3
    Duration : 32 min
    Bit rate mode : Constant
    Bit rate : 128 kb/s
    Channel(s) : 2 channels
    Sampling rate : 48.0 kHz
    Compression mode : Lossy
    Stream size : 29.8 MiB (6%)
    Alignment : Split accross interleaves
    Interleave, duration : 42 ms (1.00 video frame)
    Interleave, preload duratio : 500 ms
    Audio #2
    ID : 2
    Format : MPEG Audio
    Format version : Version 1
    Format profile : Layer 3
    Mode : Joint stereo
    Mode extension : MS Stereo
    Codec ID : 55
    Codec ID/Hint : MP3
    Duration : 32 min
    Bit rate mode : Constant
    Bit rate : 128 kb/s
    Channel(s) : 2 channels
    Sampling rate : 48.0 kHz
    Compression mode : Lossy
    Stream size : 29.8 MiB (6%)
    Alignment : Split accross interleaves
    Interleave, duration : 42 ms (1.00 video frame)
    Interleave, preload duratio : 500 ms


    Скриншоты для ознакомления




    Jillian Michaels | Killer Abs (2012) DVDRip [EN, POR]
    загрузка...
    Рейтинг →
     (голосов: 1, оценка 4/5, голосовать можно 1 раз )

    Другие торренты по теме:

  • Jillian Michaels | BodyShred (2015) DVDRip [H.264] [EN]
  • Jillian Michaels | Body Revolution (2012) DVDRip [EN]
  • Jillian Michaels | Killer Buns and Thighs (2011) DVDRip [EN]
  • Jillian Michaels | Killer Body (2015) DVDRip [EN]
  • Jillian Michaels | Beginner Shred (2014) DVDRip [H.264] [EN]
  • Jillian Michaels | Shred-It With Weights (2010) DVDRip [RU, EN]
  • Jillian Michaels | 10 Minute Body Transformation (2016) WEBRip [H.264 / 720p] [EN]
  • Jillian Michaels | Killer Arms and Back (2015) WEBRip [H.264 / 720p] [EN]


    • Комментарии (0):

      Информация

      Информация

        Посетители, находящиеся в группе Гости, не могут оставлять комментарии в данной новости.

        ↓ Меню




        ↓ Опрос

        Вы добавили сайт в закладки?
        Да
        Нет


        Top 10 за месяц (Книги)

        Марк Мэнсон | Тонкое искусство пофигизма. Парадоксальный способ жить счастливо (2017) [FB2, RTF]

        (скачиваний: 34)
        А.В. Дроган | Разумная психология. НЛП с нуля или игры разума (2006) [FB2, EPUB]

        (скачиваний: 28)
        Лисса Рэнкин | Исцеление от страха (2015) [FB2, EPUB]

        (скачиваний: 25)
        Павел Секун | Вы будете богаты и счастливы, если сделаете все, что написано в этой книге (2016) [FB2, EPUB]

        (скачиваний: 24)
        Брайан Кристиан, Том Гриффитс | Алгоритмы для жизни: Простые способы принимать верные решения (2017) [FB2]

        (скачиваний: 22)
        Борис Акимов | Медитация. Самовнушение. Аутотренинг. Самые эффективные психотехники (2014) [FB2, EPUB]

        (скачиваний: 22)
        Книжная серия | Тайны Третьего Рейха [6 книг] (2000-2011) [FB2, EPUB]

        (скачиваний: 21)
        Е. Афанасова | Готовим вино, наливки, настойки (2017) [PDF]

        (скачиваний: 21)
        Эмма Сарджент, Тим Фиерон | Научиться вести разговор в любой ситуации (2012) [PDF]

        (скачиваний: 21)
        Геннадий Кибардин | Су-Джок лечит: мигрень, кашель, боль в спине, тяжесть в желудке (2016) [FB2, EPUB]

        (скачиваний: 20)