.
Авторизация | Регистрация
Хочешь лучшие торренты? Добавь свой email!
Добавить

Торрент скачать бесплатно

» » Сергей Ильясов | Анатомия успешного биржевого трейдинга (VIP версия) (2014) PCRec [H.264 / 720p] торрент скачать бесплатно




    Сергей Ильясов | Анатомия успешного биржевого трейдинга (VIP версия) (2014) PCRec [H.264 / 720p] торрент скачать бесплатно

    Опубликовал: Админ | Дата: 13-09-2016, 04:00 | Просмотров: 33

    Автор (режиссер): Сергей Ильясов
    Жанр: Трейдинг

    Описание

    Курс длится 7 недель,
    Уже через 2 недели вы начнете торговать на бирже самостоятельно,
    2 занятия в неделю, одно – теоретическое и одно – практическое,
    Ежедневные занятия в группе ВКонтакте, помощь наставника и соучеников,
    Только 100% работающие, проверенные практикой методики,
    Вы будете зарабатывать независимо от экономической ситуации в стране и мире.
    Продолжительность: 45: 52: 30
    Качество видео: PCRec
    Видео: AVC/H.264, 1280х720, ~860 Kbps
    Аудио: AAC, 2 ch, 192 Kbps, VBR
    Код:

    General
    Complete name : C:TorrentsСергей Ильясов - Анатомия успешного биржевого трейдинга (VIP версия) (2014)УрокиУрок 07 от 05 06 2014.mp4
    Format : MPEG-4
    Format profile : Base Media/Version 2
    Codec ID : mp42
    File size : 862 MiB
    Duration : 1h 54mn
    Overall bit rate mode : Variable
    Overall bit rate : 1 054 Kbps
    Encoded date : UTC 2014-06-04 17:03:52
    Tagged date : UTC 2014-06-04 17:03:52
    gsst : 0
    gstd : 6864746
    gssd : B4A7DDA46MH1404028535918520
    gshh : r6---sn-4g57kues.googlevideo.com
    Video
    ID : 1
    Format : AVC
    Format/Info : Advanced Video Codec
    Format profile :High@L3.1
    Format settings, CABAC : Yes
    Format settings, ReFrames : 1 frame
    Codec ID : avc1
    Codec ID/Info : Advanced Video Coding
    Duration : 1h 54mn
    Bit rate : 860 Kbps
    Maximum bit rate : 3 393 Kbps
    Width : 1 280 pixels
    Height : 720 pixels
    Display aspect ratio : 16:9
    Frame rate mode : Constant
    Frame rate : 15.000 fps
    Color space : YUV
    Chroma subsampling : 4:2:0
    Bit depth : 8 bits
    Scan type : Progressive
    Bits/(Pixel*Frame) : 0.062
    Stream size : 704 MiB (82%)
    Tagged date : UTC 2014-06-04 17:05:50
    Audio
    ID : 2
    Format : AAC
    Format/Info : Advanced Audio Codec
    Format profile : LC
    Codec ID : 40
    Duration : 1h 54mn
    Bit rate mode : Variable
    Bit rate : 192 Kbps
    Maximum bit rate : 202 Kbps
    Channel(s) : 2 channels
    Channel positions : Front: L R
    Sampling rate : 44.1 KHz
    Compression mode : Lossy
    Stream size : 157 MiB (18%)
    Title : IsoMedia File Produced by Google, 5-11-2011
    Encoded date : UTC 2014-06-04 17:05:03
    Tagged date : UTC 2014-06-04 17:05:50


    Скриншоты для ознакомления




    Сергей Ильясов | Анатомия успешного биржевого трейдинга (VIP версия) (2014) PCRec [H.264/720p]
    загрузка...
    Рейтинг →
     (голосов: 1, оценка 5/5, голосовать можно 1 раз )

    Другие торренты по теме:

  • Сергей Гвоздика - Сергей Гвоздика (2014) [MP3|320 кб / с]<Шансон> скачать через торрент бесплатно
  • Сергей Кабаченко | Веселая кулинария для детей. 100+ идей для творчества (2012) [PDF]
  • Сергей Дудин - Вечный зов (2006) [MP3|320 кб / с]<Progressive Rock>
  • Сергей Снегов | Экспедиция в иномир [Главы 1-02 из 31. Обновляемая] (2014) [MP3] скачать через торрент бесплатно
  • Сергей Тармашев | Сборник произведений (2011-2014) [OGG] скачать через торрент бесплатно
  • Сергей Брежнев | Мастер-класс по работе с цветом и тонировке (2014) PCRec (H.264) скачать через торрент бесплатно
  • Сергей Малицкий | Собрание сочинений [24 книги] (1999-2014) [FB2]
  • Бокс. Бернард Хопкинс - Сергей Ковалёв / Bernard Hopkins vs Sergey Kovalev(08 / 11 / 2014) HDTVRip [H.264 / 1080i] скачать через торрент бесплатно


    • Комментарии (0):

      Информация

      Информация

        Посетители, находящиеся в группе Гости, не могут оставлять комментарии в данной новости.

        ↓ Меню




        ↓ Опрос

        Вы добавили сайт в закладки?
        Да
        Нет


        Top 10 за месяц (Книги)

        Марк Мэнсон | Тонкое искусство пофигизма. Парадоксальный способ жить счастливо (2017) [FB2, RTF]

        (скачиваний: 33)
        А.В. Дроган | Разумная психология. НЛП с нуля или игры разума (2006) [FB2, EPUB]

        (скачиваний: 26)
        Лисса Рэнкин | Исцеление от страха (2015) [FB2, EPUB]

        (скачиваний: 25)
        Павел Секун | Вы будете богаты и счастливы, если сделаете все, что написано в этой книге (2016) [FB2, EPUB]

        (скачиваний: 23)
        Борис Акимов | Медитация. Самовнушение. Аутотренинг. Самые эффективные психотехники (2014) [FB2, EPUB]

        (скачиваний: 21)
        Книжная серия | Тайны Третьего Рейха [6 книг] (2000-2011) [FB2, EPUB]

        (скачиваний: 21)
        Брайан Кристиан, Том Гриффитс | Алгоритмы для жизни: Простые способы принимать верные решения (2017) [FB2]

        (скачиваний: 21)
        Геннадий Кибардин | Су-Джок лечит: мигрень, кашель, боль в спине, тяжесть в желудке (2016) [FB2, EPUB]

        (скачиваний: 20)
        Е. Афанасова | Готовим вино, наливки, настойки (2017) [PDF]

        (скачиваний: 20)
        Эмма Сарджент, Тим Фиерон | Научиться вести разговор в любой ситуации (2012) [PDF]

        (скачиваний: 19)