.
Авторизация | Регистрация
Хочешь лучшие торренты? Добавь свой email!
Добавить

Торрент скачать бесплатно

» » Варченко Виталий | 55 комплексов для бойца и не только (2015) CamRip торрент скачать бесплатно




    Варченко Виталий | 55 комплексов для бойца и не только (2015) CamRip торрент скачать бесплатно

    Опубликовал: Админ | Дата: 29-08-2016, 04:00 | Просмотров: 71

    Автор (режиссер): Варченко Виталий
    Жанр: Спорт, мастер-класс

    Описание

    То, что я тебе предлагаю - это действительно уникальное и универсальное решение проблемы с тренировками и получение отличных результатов!
    Мой видео курс 55 комплексов для бойца и не только - это различные тренировочные комплексы, которые помогают развить все качества бойца - выносливость, мощь, силу удара, скорость, подвижность и т.д.
    Он универсален для любого человека, который хочет иметь крепкое здоровье, привести себя в форму, сбросить лишний вес, сделать свое тело рельефным и сексуальным, наконец-то увидеть свои кубики пресса!
    Продолжительность: 02: 47: 26
    Качество видео: CamRip
    Видео: AVC/H.264, 1280x720, ~2816 kbps
    Аудио: AAC, 2 ch, 192 kbps
    Код:

    Общее
    Полное имя : D:55 комплексов для бойца и не только1. Как заниматься по курсуОбъяснение что и как делать.mp4
    Формат : MPEG-4
    Профиль формата : Base Media/Version 2
    Идентификатор кодека : mp42 (isom/mp42)
    Размер файла : 59, 9 Мбайт
    Продолжительность : 3 м. 35 с.
    Режим общего битрейта : Переменный
    Общий поток : 2327 Кбит/сек
    Дата кодирования : UTC 2015-09-10 17:27:00
    Дата пометки : UTC 2015-09-10 17:27:00
    gsst : 0
    gstd : 215921
    gssd : BADC29285MM1443260164636069
    gshh : r5---sn-n8v7znel.googlevideo.com
    Видео
    Идентификатор : 1
    Формат : AVC
    Формат/Информация : Advanced Video Codec
    Профиль формата :High@L3.1
    Параметр CABAC формата : Да
    Параметр ReFrames формата : 1 кадр
    Идентификатор кодека : avc1
    Идентификатор кодека/Информация : Advanced Video Coding
    Продолжительность : 3 м. 35 с.
    Битрейт : 2133 Кбит/сек
    Максимальный битрейт : 2816 Кбит/сек
    Ширина : 1280 пикселей
    Высота : 720 пикселей
    Соотношение сторон : 16:9
    Режим частоты кадров : Постоянный
    Частота кадров : 25, 000 кадров/сек
    Цветовое пространство : YUV
    Субдискретизация насыщенности : 4:2:0
    Битовая глубина : 8 бит
    Тип развёртки : Прогрессивная
    Бит/(Пиксели*Кадры) : 0.093
    Размер потока : 54, 9 Мбайт (92%)
    Дата пометки : UTC 2015-09-10 17:27:02
    Аудио
    Идентификатор : 2
    Формат : AAC
    Формат/Информация : Advanced Audio Codec
    Профиль формата : LC
    Идентификатор кодека : 40
    Продолжительность : 3 м. 35 с.
    Вид битрейта : Переменный
    Битрейт : 192 Кбит/сек
    Максимальный битрейт : 201 Кбит/сек
    Каналы : 2 канала
    Расположение каналов : Front: L R
    Частота : 44, 1 КГц
    Частота кадров : 43, 066 кадра/сек (1024 spf)
    Метод сжатия : С потерями
    Размер потока : 4, 94 Мбайт (8%)
    Заголовок : IsoMedia File Produced by Google, 5-11-2011
    Язык : English
    Дата кодирования : UTC 2015-09-10 17:27:01
    Дата пометки : UTC 2015-09-10 17:27:02


    Скриншоты для ознакомления




    Варченко Виталий | 55 комплексов для бойца и не только (2015) CamRip
    загрузка...
    Рейтинг →
     (голосов: 1, оценка 5/5, голосовать можно 1 раз )

    Другие торренты по теме:



      Комментарии (0):

      Информация

      Информация

        Посетители, находящиеся в группе Гости, не могут оставлять комментарии в данной новости.

        ↓ Меню




        ↓ Опрос

        Вы добавили сайт в закладки?
        Да
        Нет


        Top 10 за месяц (Книги)

        Джиллиан Майклз | Знаменитая программа Джиллиан Майклз: Стройное и здоровое тело за 30 дней (2016) [FB2]

        (скачиваний: 54)
        И.Б. Фефилова | Антивозрастная медицина. Современная энциклопедия (2015) [PDF, EPUB]

        (скачиваний: 31)
        Михаил Диденко | Русский стиль выживания. Как остаться в живых одному в лесу (2017) [PDF, FB2]

        (скачиваний: 26)
        Михаил Лабковский | Хочу и буду: Принять себя, полюбить жизнь и стать счастливым (2017) [FB2, EPUB]

        (скачиваний: 24)
        Александр Клинге | Ленин. Самая правдивая биография Ильича (2017) [FB2, EPUB]

        (скачиваний: 23)
        Давид Дубницкий | Жанровый НЮ-портрет (2016) PCRec

        (скачиваний: 20)
        Евгений Старухин | Цикл «Лесовик» [4 книги. Обновляемая] (2015-2017) [FB2]

        (скачиваний: 20)
        Дэвид Агус | Завтра начинается сегодня. Как воспользоваться достижениями anti-age медицины (2017) [FB2, EPUB]

        (скачиваний: 20)
        Джон Дуглас, Марк Олшейкер | Психологический портрет убийцы. Методики ФБР (2016) [FB2, EPUB]

        (скачиваний: 19)
        Лидия Резник | 25 любимых специй (2017) [FB2]

        (скачиваний: 19)