.
Авторизация | Регистрация
Хочешь лучшие торренты? Добавь свой email!
Добавить

Торрент скачать бесплатно

» » Нетология | Работа со сложными клиентами (2016) WEB-DL торрент скачать бесплатно




    Нетология | Работа со сложными клиентами (2016) WEB-DL торрент скачать бесплатно

    Опубликовал: Админ | Дата: 10-08-2016, 04:00 | Просмотров: 47

    Автор (режиссер): Нетология
    Жанр: Бизнес, продажи, менеджмент

    Описание

    Рост продаж и развитие бизнеса во многом зависят от клиентов. Но далеко не все из них легко идут на контакт, соглашаются с предложенными решениями и аргументированно высказывают критику. Может ли сложный клиент стать лояльным к компании? — вопрос, которым задаются многие менеджеры.
    Этот курс о работе со сложными клиентами ориентирован на аккаунт-менеджеров и руководителей компаний.
    Бизнес-тренер Евгения Тополова расскажет, какие типы сложных клиентов существуют, как их определить и работать с ними. Самое интересное в это истории, что об этом Обама ничего не знал. Вы научитесь регулировать конфликты, отвечать на возражения и бороться с манипуляциями. Вы узнаете, каковы плюсы работы со сложными клиентами и как оценивать ее эффективность.
    Продолжительность: 00: 41: 53
    Качество видео: WEB-DL
    Видео: AVC/H.264, 1280x720, ~2500 Kbps
    Аудио: AAC, 2 ch, 160 Kbps
    Код:

    Общее
    Полное имя : D:Работа со сложными клиентами1 - Вступление и знакомство с автором.mp4
    Формат : iso5
    Идентификатор кодека : iso5 (iso6/mp41)
    Размер файла : 47, 7 Мбайт
    Продолжительность : 2 м. 32 с.
    Общий поток : 2629 Кбит/сек
    Программа кодирования : Lavf57.44.100
    Видео
    Идентификатор : 1
    Формат : AVC
    Формат/Информация : Advanced Video Codec
    Профиль формата :High@L3.1
    Параметр CABAC формата : Да
    Параметр ReFrames формата : 5 кадров
    Идентификатор кодека : avc1
    Идентификатор кодека/Информация : Advanced Video Coding
    Продолжительность : 2 м. 32 с.
    Битрейт : 2500 Кбит/сек
    Ширина : 1280 пикселей
    Высота : 720 пикселей
    Соотношение сторон : 16:9
    Режим частоты кадров : Постоянный
    Частота кадров : 29, 970 (30000/1001) кадров/сек
    Цветовое пространство : YUV
    Субдискретизация насыщенности : 4:2:0
    Битовая глубина : 8 бит
    Тип развёртки : Прогрессивная
    Бит/(Пиксели*Кадры) : 0.091
    Размер потока : 44, 7 Мбайт (94%)
    Библиотека кодирования : x264 core 146 r11M 121396c
    Настройки программы : cabac=1/ref=5/deblock=1:0:0/analyse=0x3:0x113/me=umh/subme=8/psy=1/psy_rd=1.00:0.00/mixed_ref=1/me_range=16/chroma_me=1/trellis=1/8x8dct=1/cqm=0/deadzone=21, 11/fast_pskip=1/chroma_qp_offset=-2/threads=48/lookahead_threads=5/sliced_threads=0/nr=0/decimate=1/interlaced=0/bluray_compat=0/stitchable=1/constrained_intra=0/bframes=3/b_pyramid=2/b_adapt=2/b_bias=0/direct=3/weightb=1/open_gop=0/weightp=2/keyint=infinite/keyint_min=29/scenecut=40/intra_refresh=0/rc_lookahead=50/rc=2pass/mbtree=1/bitrate=2500/ratetol=1.0/qcomp=0.60/qpmin=5/qpmax=69/qpstep=4/cplxblur=20.0/qblur=0.5/vbv_maxrate=2750/vbv_bufsize=7500/nal_hrd=none/filler=0/ip_ratio=1.40/aq=1:1.00
    Цветовой диапазон : Limited
    Основные цвета : BT.709
    Характеристики трансфера : BT.709
    Коэффициенты матрицы : BT.709
    Аудио
    Идентификатор : 2
    Формат : AAC
    Формат/Информация : Advanced Audio Codec
    Профиль формата : LC
    Идентификатор кодека : 40
    Продолжительность : 2 м. 32 с.
    Битрейт : 160 Кбит/сек
    Каналы : 2 канала
    Расположение каналов : Front: L R
    Частота : 48, 0 КГц
    Частота кадров : 46, 875 кадров/сек (1024 spf)
    Метод сжатия : С потерями
    Размер потока : 2, 90 Мбайт (6%)
    Default : Да
    Alternate group : 1


    Скриншоты для ознакомления




    Нетология | Работа со сложными клиентами (2016) WEB-DL
    загрузка...
    Рейтинг →
     (голосов: 1, оценка 5/5, голосовать можно 1 раз )

    Другие торренты по теме:

  • Центр Нетология | HTМL версткa. C нуля до первого макета (2015) PCRec [H.264 / 720p] скачать через торрент бесплатно
  • Нетология | HTML-верстка: инструменты и приемы профессиональной front-end разработки (2015) PCRec [H.264 / 720p] скачать через торрент бесплатно
  • Нетология | 36 миникурсов (2015) WEB-DL [H.264]
  • Нетология | Запуск стартапа: от поиска идеи до выхода на рынок (2015) PCRec
  • Нетология | Веб-дизайнер: эффективный сайт от идеи до реализации (2014) PCRec [H.264]
  • Нетология | SMM-менеджер: продвижение бизнеса в социальных сетях (2013) PCRec
  • Нетология | Основы объектно-ориентированного программирования (2015) PCRec [H.264 / 1080p]
  • Нетология | UX Дизайнер (2015) PCRec


    • Комментарии (0):

      Информация

      Информация

        Посетители, находящиеся в группе Гости, не могут оставлять комментарии в данной новости.

        ↓ Меню




        ↓ Опрос

        Вы добавили сайт в закладки?
        Да
        Нет


        Top 10 за месяц (Книги)

        Джиллиан Майклз | Знаменитая программа Джиллиан Майклз: Стройное и здоровое тело за 30 дней (2016) [FB2]

        (скачиваний: 54)
        И.Б. Фефилова | Антивозрастная медицина. Современная энциклопедия (2015) [PDF, EPUB]

        (скачиваний: 31)
        Михаил Диденко | Русский стиль выживания. Как остаться в живых одному в лесу (2017) [PDF, FB2]

        (скачиваний: 26)
        Михаил Лабковский | Хочу и буду: Принять себя, полюбить жизнь и стать счастливым (2017) [FB2, EPUB]

        (скачиваний: 24)
        Александр Клинге | Ленин. Самая правдивая биография Ильича (2017) [FB2, EPUB]

        (скачиваний: 23)
        Евгений Старухин | Цикл «Лесовик» [4 книги. Обновляемая] (2015-2017) [FB2]

        (скачиваний: 20)
        Давид Дубницкий | Жанровый НЮ-портрет (2016) PCRec

        (скачиваний: 20)
        Дэвид Агус | Завтра начинается сегодня. Как воспользоваться достижениями anti-age медицины (2017) [FB2, EPUB]

        (скачиваний: 20)
        Джон Дуглас, Марк Олшейкер | Психологический портрет убийцы. Методики ФБР (2016) [FB2, EPUB]

        (скачиваний: 19)
        Лидия Резник | 25 любимых специй (2017) [FB2]

        (скачиваний: 19)