.
Авторизация | Регистрация
Хочешь лучшие торренты? Добавь свой email!
Добавить

Торрент скачать бесплатно

» » Бизнес Молодость | Реальный директ (2015) PCRec торрент скачать бесплатно




    Бизнес Молодость | Реальный директ (2015) PCRec торрент скачать бесплатно

    Опубликовал: Админ | Дата: 8-07-2016, 04:00 | Просмотров: 74

    Автор (режиссер): Бизнес Молодость
    Производство: Россия
    Жанр: Видеокурс

    Описание

    Реальный директ от БМ
    Практический онлайн-курс по созданию и оптимизации потока клиентов из Яндекс.Директ. 10 занятий на протяжение 37 дней. Маньяки Директа.
    На кого рассчитан курс?
    - На владельцев бизнеса, которые хотят получать мощный поток клиентов и устали от подрядчиков с кривыми руками
    - На подрядчиков, понимающих, что у них кривые руки, но они хотят начать использовать инструмент на все 100%
    - На интернет-маркетологов, которые хотят обладать ультра-передовыми технологиями
    - На новичков, которые впервые запускают кампанию и хотят сразу получать клиентов по выгодной цене
    - На тех, кто вообще не понимает в Директе, но хочет в нём разобраться
    Продолжительность: 01: 22: 30: 17
    Качество видео: HDRip
    Язык: Русский
    Видео: Xvid, 768x432, ~413kbps
    Аудио: AAC, 2 ch, 128kbps, VBR
    Код:

    General
    Complete name : Реальный Директ1 Оценка своего уровня и постановка целиЗанятие 1 Оценка своего уровня и постановка цели.mp4
    Format : MPEG-4
    Format profile : Base Media
    Codec ID : isom (isom/avc1/M4V /mp42)
    File size : 800 MiB
    Duration : 3h 24mn
    Overall bit rate mode : Variable
    Overall bit rate : 547 Kbps
    Encoded date : UTC 2015-06-25 14:16:24
    Tagged date : UTC 2015-06-25 14:16:24
    Video
    ID : 1
    Format : AVC
    Format/Info : Advanced Video Codec
    Format profile :Main@L4.1
    Format settings, CABAC : Yes
    Format settings, ReFrames : 1 frame
    Format settings, GOP : M=1, N=60
    Codec ID : avc1
    Codec ID/Info : Advanced Video Coding
    Duration : 3h 24mn
    Bit rate : 413 Kbps
    Width : 768 pixels
    Height : 432 pixels
    Display aspect ratio : 16:9
    Frame rate mode : Variable
    Frame rate : 25.000 fps
    Minimum frame rate : 13.699 fps
    Maximum frame rate : 25.000 fps
    Color space : YUV
    Chroma subsampling : 4:2:0
    Bit depth : 8 bits
    Scan type : Progressive
    Bits/(Pixel*Frame) : 0.050
    Stream size : 603 MiB (75%)
    Title : Mp4 Video
    Language : English
    Encoded date : UTC 2015-06-25 14:16:24
    Tagged date : UTC 2015-06-25 14:16:24
    Audio
    ID : 2
    Format : AAC
    Format/Info : Advanced Audio Codec
    Format profile : LC
    Codec ID : 40
    Duration : 3h 24mn
    Bit rate mode : Variable
    Bit rate : 128 Kbps
    Channel(s) : 2 channels
    Channel positions : Front: L R
    Sampling rate : 44.1 KHz
    Frame rate : 43.066 fps (1024 spf)
    Compression mode : Lossy
    Stream size : 187 MiB (23%)
    Title : Mp4 Audio
    Language : English
    Encoded date : UTC 2015-06-25 14:16:24
    Tagged date : UTC 2015-06-25 14:16:24
    General
    Complete name : Реальный Директ2 Конкурентная разведкаЗанятие 2 Конкурентная разведка.mp4
    Format : MPEG-4
    Format profile : Base Media
    Codec ID : isom (isom/avc1/M4V /mp42)
    File size : 764 MiB
    Duration : 3h 5mn
    Overall bit rate mode : Variable
    Overall bit rate : 576 Kbps
    Encoded date : UTC 2015-06-29 14:22:11
    Tagged date : UTC 2015-06-29 14:22:11
    Video
    ID : 1
    Format : AVC
    Format/Info : Advanced Video Codec
    Format profile : Main@L3
    Format settings, CABAC : Yes
    Format settings, ReFrames : 1 frame
    Format settings, GOP : M=1, N=50
    Codec ID : avc1
    Codec ID/Info : Advanced Video Coding
    Duration : 3h 5mn
    Bit rate mode : Variable
    Bit rate : 441 Kbps
    Maximum bit rate : 705 Kbps
    Width : 768 pixels
    Height : 432 pixels
    Display aspect ratio : 16:9
    Frame rate mode : Variable
    Frame rate : 25.000 fps
    Minimum frame rate : 3.125 fps
    Maximum frame rate : 25.000 fps
    Color space : YUV
    Chroma subsampling : 4:2:0
    Bit depth : 8 bits
    Scan type : Progressive
    Bits/(Pixel*Frame) : 0.053
    Stream size : 586 MiB (77%)
    Title : Mp4 Video
    Language : English
    Encoded date : UTC 2015-06-29 14:22:11
    Tagged date : UTC 2015-06-29 14:22:11
    Audio
    ID : 2
    Format : AAC
    Format/Info : Advanced Audio Codec
    Format profile : LC
    Codec ID : 40
    Duration : 3h 5mn
    Source duration : 3h 5mn
    Bit rate mode : Variable
    Bit rate : 128 Kbps
    Channel(s) : 2 channels
    Channel positions : Front: L R
    Sampling rate : 44.1 KHz
    Frame rate : 43.066 fps (1024 spf)
    Compression mode : Lossy
    Stream size : 170 MiB (22%)
    Source stream size : 170 MiB (22%)
    Title : Mp4 Audio
    Language : English
    Encoded date : UTC 2015-06-29 14:22:11
    Tagged date : UTC 2015-06-29 14:22:11
    General
    Complete name : Реальный Директ3 Сбор базовой семантикиЗанятие 3 Сбор базовой семантики.mp4
    Format : MPEG-4
    Format profile : Base Media
    Codec ID : isom (isom/avc1/M4V /mp42)
    File size : 938 MiB
    Duration : 3h 47mn
    Overall bit rate mode : Variable
    Overall bit rate : 577 Kbps
    Encoded date : UTC 2015-07-02 14:36:09
    Tagged date : UTC 2015-07-02 14:36:09
    Video
    ID : 1
    Format : AVC
    Format/Info : Advanced Video Codec
    Format profile : Main@L3
    Format settings, CABAC : Yes
    Format settings, ReFrames : 1 frame
    Format settings, GOP : M=1, N=50
    Codec ID : avc1
    Codec ID/Info : Advanced Video Coding
    Duration : 3h 47mn
    Bit rate mode : Variable
    Bit rate : 443 Kbps
    Maximum bit rate : 705 Kbps
    Width : 768 pixels
    Height : 432 pixels
    Display aspect ratio : 16:9
    Frame rate mode : Variable
    Frame rate : 25.000 fps
    Minimum frame rate : 12.500 fps
    Maximum frame rate : 25.000 fps
    Color space : YUV
    Chroma subsampling : 4:2:0
    Bit depth : 8 bits
    Scan type : Progressive
    Bits/(Pixel*Frame) : 0.053
    Stream size : 720 MiB (77%)
    Title : Mp4 Video
    Language : English
    Encoded date : UTC 2015-07-02 14:36:09
    Tagged date : UTC 2015-07-02 14:36:09
    Audio
    ID : 2
    Format : AAC
    Format/Info : Advanced Audio Codec
    Format profile : LC
    Codec ID : 40
    Duration : 3h 47mn
    Source duration : 3h 47mn
    Bit rate mode : Variable
    Bit rate : 128 Kbps
    Channel(s) : 2 channels
    Channel positions : Front: L R
    Sampling rate : 44.1 KHz
    Frame rate : 43.066 fps (1024 spf)
    Compression mode : Lossy
    Stream size : 208 MiB (22%)
    Source stream size : 208 MiB (22%)
    Title : Mp4 Audio
    Language : English
    Encoded date : UTC 2015-07-02 14:36:09
    Tagged date : UTC 2015-07-02 14:36:09
    General
    Complete name : Реальный Директ4 Парсинг, минусация, искусственная семантикаЗанятие 4 Парсинг, минусация, искусственная семантика.mp4
    Format : MPEG-4
    Format profile : Base Media
    Codec ID : isom (isom/avc1/M4V /mp42)
    File size : 2.55 GiB
    Duration : 3h 14mn
    Overall bit rate mode : Variable
    Overall bit rate : 1 881 Kbps
    Encoded date : UTC 2015-07-07 14:23:22
    Tagged date : UTC 2015-07-07 14:23:22
    Video
    ID : 1
    Format : AVC
    Format/Info : Advanced Video Codec
    Format profile :Main@L3.1
    Format settings, CABAC : Yes
    Format settings, ReFrames : 1 frame
    Format settings, GOP : M=1, N=50
    Codec ID : avc1
    Codec ID/Info : Advanced Video Coding
    Duration : 3h 14mn
    Bit rate mode : Variable
    Bit rate : 1 554 Kbps
    Maximum bit rate : 2 011 Kbps
    Width : 1 280 pixels
    Height : 720 pixels
    Display aspect ratio : 16:9
    Frame rate mode : Variable
    Frame rate : 25.000 fps
    Minimum frame rate : 8.333 fps
    Maximum frame rate : 25.000 fps
    Color space : YUV
    Chroma subsampling : 4:2:0
    Bit depth : 8 bits
    Scan type : Progressive
    Bits/(Pixel*Frame) : 0.067
    Stream size : 2.11 GiB (83%)
    Title : Mp4 Video
    Language : English
    Encoded date : UTC 2015-07-07 14:23:22
    Tagged date : UTC 2015-07-07 14:23:22
    Audio
    ID : 2
    Format : AAC
    Format/Info : Advanced Audio Codec
    Format profile : LC
    Codec ID : 40
    Duration : 3h 14mn
    Bit rate mode : Variable
    Bit rate : 320 Kbps
    Channel(s) : 2 channels
    Channel positions : Front: L R
    Sampling rate : 44.1 KHz
    Frame rate : 43.066 fps (1024 spf)
    Compression mode : Lossy
    Stream size : 444 MiB (17%)
    Title : Mp4 Audio
    Language : English
    Encoded date : UTC 2015-07-07 14:23:22
    Tagged date : UTC 2015-07-07 14:23:22
    General
    Complete name : Реальный Директ5 Структура кампаний, написание объявлений, подключение Яндекс МетрикиЗанятие 5 Структура кампаний, написание объявлений, подключение Яндекс Метрики.mp4
    Format : MPEG-4
    Format profile : Base Media
    Codec ID : isom (isom/avc1/M4V /mp42)
    File size : 810 MiB
    Duration : 3h 17mn
    Overall bit rate mode : Variable
    Overall bit rate : 575 Kbps
    Encoded date : UTC 2015-07-09 14:10:52
    Tagged date : UTC 2015-07-09 14:10:52
    Video
    ID : 1
    Format : AVC
    Format/Info : Advanced Video Codec
    Format profile : Main@L3
    Format settings, CABAC : Yes
    Format settings, ReFrames : 1 frame
    Format settings, GOP : M=1, N=50
    Codec ID : avc1
    Codec ID/Info : Advanced Video Coding
    Duration : 3h 17mn
    Bit rate mode : Variable
    Bit rate : 440 Kbps
    Maximum bit rate : 705 Kbps
    Width : 768 pixels
    Height : 432 pixels
    Display aspect ratio : 16:9
    Frame rate mode : Variable
    Frame rate : 25.000 fps
    Minimum frame rate : 5.682 fps
    Maximum frame rate : 25.000 fps
    Color space : YUV
    Chroma subsampling : 4:2:0
    Bit depth : 8 bits
    Scan type : Progressive
    Bits/(Pixel*Frame) : 0.053
    Stream size : 620 MiB (77%)
    Title : Mp4 Video
    Language : English
    Encoded date : UTC 2015-07-09 14:10:52
    Tagged date : UTC 2015-07-09 14:10:52
    Audio
    ID : 2
    Format : AAC
    Format/Info : Advanced Audio Codec
    Format profile : LC
    Codec ID : 40
    Duration : 3h 17mn
    Bit rate mode : Variable
    Bit rate : 128 Kbps
    Channel(s) : 2 channels
    Channel positions : Front: L R
    Sampling rate : 44.1 KHz
    Frame rate : 43.066 fps (1024 spf)
    Compression mode : Lossy
    Stream size : 180 MiB (22%)
    Title : Mp4 Audio
    Language : English
    Encoded date : UTC 2015-07-09 14:10:52
    Tagged date : UTC 2015-07-09 14:10:52
    General
    Complete name : Реальный Директ6 Настройки кампании. МодерацияЗанятие 6 Настройки кампании. Модерация.mp4
    Format : MPEG-4
    Format profile : Base Media
    Codec ID : isom (isom/avc1/M4V /mp42)
    File size : 817 MiB
    Duration : 3h 35mn
    Overall bit rate mode : Variable
    Overall bit rate : 531 Kbps
    Encoded date : UTC 2015-07-14 14:16:38
    Tagged date : UTC 2015-07-14 14:16:38
    Video
    ID : 1
    Format : AVC
    Format/Info : Advanced Video Codec
    Format profile : Main@L3
    Format settings, CABAC : Yes
    Format settings, ReFrames : 1 frame
    Format settings, GOP : M=1, N=50
    Codec ID : avc1
    Codec ID/Info : Advanced Video Coding
    Duration : 3h 35mn
    Bit rate mode : Variable
    Bit rate : 396 Kbps
    Maximum bit rate : 705 Kbps
    Width : 768 pixels
    Height : 432 pixels
    Display aspect ratio : 16:9
    Frame rate mode : Variable
    Frame rate : 25.000 fps
    Minimum frame rate : 13.699 fps
    Maximum frame rate : 25.000 fps
    Color space : YUV
    Chroma subsampling : 4:2:0
    Bit depth : 8 bits
    Scan type : Progressive
    Bits/(Pixel*Frame) : 0.048
    Stream size : 610 MiB (75%)
    Title : Mp4 Video
    Language : English
    Encoded date : UTC 2015-07-14 14:16:38
    Tagged date : UTC 2015-07-14 14:16:38
    Audio
    ID : 2
    Format : AAC
    Format/Info : Advanced Audio Codec
    Format profile : LC
    Codec ID : 40
    Duration : 3h 35mn
    Source duration : 3h 35mn
    Bit rate mode : Variable
    Bit rate : 128 Kbps
    Channel(s) : 2 channels
    Channel positions : Front: L R
    Sampling rate : 44.1 KHz
    Frame rate : 43.066 fps (1024 spf)
    Compression mode : Lossy
    Stream size : 197 MiB (24%)
    Source stream size : 197 MiB (24%)
    Title : Mp4 Audio
    Language : English
    Encoded date : UTC 2015-07-14 14:16:38
    Tagged date : UTC 2015-07-14 14:16:38
    General
    Complete name : Реальный Директ7 Автоматизация и подключение бид-менеджераЗанятие 7 Автоматизация и подключение бид-менеджера.mp4
    Format : MPEG-4
    Format profile : Base Media
    Codec ID : isom (isom/avc1/M4V /mp42)
    File size : 777 MiB
    Duration : 3h 42mn
    Overall bit rate mode : Variable
    Overall bit rate : 488 Kbps
    Encoded date : UTC 2015-07-16 14:25:07
    Tagged date : UTC 2015-07-16 14:25:07
    Video
    ID : 1
    Format : AVC
    Format/Info : Advanced Video Codec
    Format profile : Main@L3
    Format settings, CABAC : Yes
    Format settings, ReFrames : 1 frame
    Format settings, GOP : M=1, N=50
    Codec ID : avc1
    Codec ID/Info : Advanced Video Coding
    Duration : 3h 42mn
    Bit rate mode : Variable
    Bit rate : 354 Kbps
    Maximum bit rate : 705 Kbps
    Width : 768 pixels
    Height : 432 pixels
    Display aspect ratio : 16:9
    Frame rate mode : Variable
    Frame rate : 25.000 fps
    Minimum frame rate : 13.699 fps
    Maximum frame rate : 25.000 fps
    Color space : YUV
    Chroma subsampling : 4:2:0
    Bit depth : 8 bits
    Scan type : Progressive
    Bits/(Pixel*Frame) : 0.043
    Stream size : 563 MiB (72%)
    Title : Mp4 Video
    Language : English
    Encoded date : UTC 2015-07-16 14:25:07
    Tagged date : UTC 2015-07-16 14:25:07
    Audio
    ID : 2
    Format : AAC
    Format/Info : Advanced Audio Codec
    Format profile : LC
    Codec ID : 40
    Duration : 3h 42mn
    Bit rate mode : Variable
    Bit rate : 128 Kbps
    Channel(s) : 2 channels
    Channel positions : Front: L R
    Sampling rate : 44.1 KHz
    Frame rate : 43.066 fps (1024 spf)
    Compression mode : Lossy
    Stream size : 204 MiB (26%)
    Title : Mp4 Audio
    Language : English
    Encoded date : UTC 2015-07-16 14:25:07
    Tagged date : UTC 2015-07-16 14:25:07
    General
    Complete name : Реальный Директ8 Великая РСЯЗанятие 8 Великая РСЯ.mp4
    Format : MPEG-4
    Format profile : Base Media
    Codec ID : isom (isom/avc1/M4V /mp42)
    File size : 765 MiB
    Duration : 3h 23mn
    Overall bit rate mode : Variable
    Overall bit rate : 527 Kbps
    Encoded date : UTC 2015-07-21 14:23:30
    Tagged date : UTC 2015-07-21 14:23:30
    Video
    ID : 1
    Format : AVC
    Format/Info : Advanced Video Codec
    Format profile : Main@L3
    Format settings, CABAC : Yes
    Format settings, ReFrames : 1 frame
    Format settings, GOP : M=1, N=50
    Codec ID : avc1
    Codec ID/Info : Advanced Video Coding
    Duration : 3h 23mn
    Bit rate mode : Variable
    Bit rate : 392 Kbps
    Maximum bit rate : 705 Kbps
    Width : 768 pixels
    Height : 432 pixels
    Display aspect ratio : 16:9
    Frame rate mode : Variable
    Frame rate : 25.000 fps
    Minimum frame rate : 13.699 fps
    Maximum frame rate : 25.000 fps
    Color space : YUV
    Chroma subsampling : 4:2:0
    Bit depth : 8 bits
    Scan type : Progressive
    Bits/(Pixel*Frame) : 0.047
    Stream size : 570 MiB (74%)
    Title : Mp4 Video
    Language : English
    Encoded date : UTC 2015-07-21 14:23:30
    Tagged date : UTC 2015-07-21 14:23:30
    Audio
    ID : 2
    Format : AAC
    Format/Info : Advanced Audio Codec
    Format profile : LC
    Codec ID : 40
    Duration : 3h 23mn
    Source duration : 3h 23mn
    Bit rate mode : Variable
    Bit rate : 128 Kbps
    Channel(s) : 2 channels
    Channel positions : Front: L R
    Sampling rate : 44.1 KHz
    Frame rate : 43.066 fps (1024 spf)
    Compression mode : Lossy
    Stream size : 186 MiB (24%)
    Source stream size : 186 MiB (24%)
    Title : Mp4 Audio
    Language : English
    Encoded date : UTC 2015-07-21 14:23:30
    Tagged date : UTC 2015-07-21 14:23:30
    General
    Complete name : E:Реальный Директ9 Менеджмент, работа с директологомЗанятие 9 Менеджмент, работа с директологом.mp4
    Format : MPEG-4
    Format profile : Base Media
    Codec ID : isom (isom/avc1/M4V /mp42)
    File size : 919 MiB
    Duration : 3h 42mn
    Overall bit rate mode : Variable
    Overall bit rate : 577 Kbps
    Encoded date : UTC 2015-07-23 14:31:56
    Tagged date : UTC 2015-07-23 14:31:56
    Video
    ID : 1
    Format : AVC
    Format/Info : Advanced Video Codec
    Format profile : Main@L3
    Format settings, CABAC : Yes
    Format settings, ReFrames : 1 frame
    Format settings, GOP : M=1, N=50
    Codec ID : avc1
    Codec ID/Info : Advanced Video Coding
    Duration : 3h 42mn
    Bit rate mode : Variable
    Bit rate : 442 Kbps
    Maximum bit rate : 705 Kbps
    Width : 768 pixels
    Height : 432 pixels
    Display aspect ratio : 16:9
    Frame rate mode : Variable
    Frame rate : 25.000 fps
    Minimum frame rate : 13.699 fps
    Maximum frame rate : 25.000 fps
    Color space : YUV
    Chroma subsampling : 4:2:0
    Bit depth : 8 bits
    Scan type : Progressive
    Bits/(Pixel*Frame) : 0.053
    Stream size : 704 MiB (77%)
    Title : Mp4 Video
    Language : English
    Encoded date : UTC 2015-07-23 14:31:56
    Tagged date : UTC 2015-07-23 14:31:56
    Audio
    ID : 2
    Format : AAC
    Format/Info : Advanced Audio Codec
    Format profile : LC
    Codec ID : 40
    Duration : 3h 42mn
    Source duration : 3h 42mn
    Bit rate mode : Variable
    Bit rate : 128 Kbps
    Channel(s) : 2 channels
    Channel positions : Front: L R
    Sampling rate : 44.1 KHz
    Frame rate : 43.066 fps (1024 spf)
    Compression mode : Lossy
    Stream size : 204 MiB (22%)
    Source stream size : 204 MiB (22%)
    Title : Mp4 Audio
    Language : English
    Encoded date : UTC 2015-07-23 14:31:56
    Tagged date : UTC 2015-07-23 14:31:56
    General
    Complete name : Реальный Директ10 Аналитика, докруткаЗанятие 10 Аналитика, докрутка.mp4
    Format : MPEG-4
    Format profile : Base Media
    Codec ID : isom (isom/avc1/M4V /mp42)
    File size : 1.04 GiB
    Duration : 3h 42mn
    Overall bit rate mode : Variable
    Overall bit rate : 670 Kbps
    Encoded date : UTC 2015-07-30 15:18:44
    Tagged date : UTC 2015-07-30 15:18:44
    Video
    ID : 1
    Format : AVC
    Format/Info : Advanced Video Codec
    Format profile : Main@L3
    Format settings, CABAC : Yes
    Format settings, ReFrames : 1 frame
    Format settings, GOP : M=1, N=60
    Codec ID : avc1
    Codec ID/Info : Advanced Video Coding
    Duration : 3h 42mn
    Bit rate mode : Variable
    Bit rate : 534 Kbps
    Maximum bit rate : 705 Kbps
    Width : 768 pixels
    Height : 432 pixels
    Display aspect ratio : 16:9
    Frame rate mode : Variable
    Frame rate : 29.970 (30000/1001) fps
    Minimum frame rate : 14.925 fps
    Maximum frame rate : 30.303 fps
    Color space : YUV
    Chroma subsampling : 4:2:0
    Bit depth : 8 bits
    Scan type : Progressive
    Bits/(Pixel*Frame) : 0.054
    Stream size : 851 MiB (80%)
    Title : Mp4 Video
    Language : English
    Encoded date : UTC 2015-07-30 15:18:44
    Tagged date : UTC 2015-07-30 15:18:44
    Audio
    ID : 2
    Format : AAC
    Format/Info : Advanced Audio Codec
    Format profile : LC
    Codec ID : 40
    Duration : 3h 42mn
    Bit rate mode : Variable
    Bit rate : 128 Kbps
    Channel(s) : 2 channels
    Channel positions : Front: L R
    Sampling rate : 44.1 KHz
    Frame rate : 43.066 fps (1024 spf)
    Compression mode : Lossy
    Stream size : 204 MiB (19%)
    Title : Mp4 Audio
    Language : English
    Encoded date : UTC 2015-07-30 15:18:44
    Tagged date : UTC 2015-07-30 15:18:44


    Скриншоты для ознакомления




    Бизнес Молодость | Реальный директ (2015) PCRec
    загрузка...
    Рейтинг →
     (голосов: 1, оценка 5/5, голосовать можно 1 раз )

    Другие торренты по теме:

  • Бизнес Молодость | Найди бизнес для себя (2016) WEBRip
  • Бизнес Молодость | Бизнес под ключ (2016) WEBRip
  • Михаил Дашкиев, Пётр Осипов (Бизнес-молодость) | Коучинг (2012) CamRip
  • Михаил Дашкиев, Пётр Осипов (Бизнес-Молодость) | Третья сила: Ода безумцам и бунтарям (2014) HDRip [H.264 / 720p] скачать через торрент бесплатно
  • Бизнес Молодость | Реальный инстаграм (2016) PCRec
  • Бизнес Молодость | Реальный ВКонтакте (2016) PCRec [H.264 / 720p]
  • Бизнес Молодость | Реальный Франчайзинг (2016) PCRec
  • Бизнес Молодость | Цех (2015) WEBRip


    • Комментарии (0):

      Информация

      Информация

        Посетители, находящиеся в группе Гости, не могут оставлять комментарии в данной новости.

        ↓ Меню




        ↓ Опрос

        Вы добавили сайт в закладки?
        Да
        Нет


        Top 10 за месяц (Книги)

        Марк Мэнсон | Тонкое искусство пофигизма. Парадоксальный способ жить счастливо (2017) [FB2, RTF]

        (скачиваний: 37)
        А.В. Дроган | Разумная психология. НЛП с нуля или игры разума (2006) [FB2, EPUB]

        (скачиваний: 29)
        Лисса Рэнкин | Исцеление от страха (2015) [FB2, EPUB]

        (скачиваний: 26)
        Павел Секун | Вы будете богаты и счастливы, если сделаете все, что написано в этой книге (2016) [FB2, EPUB]

        (скачиваний: 24)
        Борис Акимов | Медитация. Самовнушение. Аутотренинг. Самые эффективные психотехники (2014) [FB2, EPUB]

        (скачиваний: 23)
        Брайан Кристиан, Том Гриффитс | Алгоритмы для жизни: Простые способы принимать верные решения (2017) [FB2]

        (скачиваний: 23)
        Е. Афанасова | Готовим вино, наливки, настойки (2017) [PDF]

        (скачиваний: 22)
        Книжная серия | Тайны Третьего Рейха [6 книг] (2000-2011) [FB2, EPUB]

        (скачиваний: 21)
        Эмма Сарджент, Тим Фиерон | Научиться вести разговор в любой ситуации (2012) [PDF]

        (скачиваний: 21)
        Евгений Старухин | Цикл «Лесовик» [4 книги. Обновляемая] (2015-2017) [FB2]

        (скачиваний: 20)