.
Авторизация | Регистрация
Хочешь лучшие торренты? Добавь свой email!
Добавить

Торрент скачать бесплатно

» » Александр Заморин и Софи Лебедева | Ретушёр 2016. Начальный и продвинутый уровень (2016) PCRec торрент скачать бесплатно




    Александр Заморин и Софи Лебедева | Ретушёр 2016. Начальный и продвинутый уровень (2016) PCRec торрент скачать бесплатно

    Опубликовал: Админ | Дата: 20-06-2016, 04:00 | Просмотров: 546

    Автор (режиссер): Александр Заморин и Софи Лебедева
    Жанр: Photoshop, Lightroom, работа с программами

    Описание

    В настоящее время фотосъемка является очень популярной. В связи с этим появляется большая востребованность на ретушеров, которые обрабатывают фото в фотошопе и лайтруме, делая их еще более профессиональными и качественными. Хотите тоже получить такие навыки и узнать все секреты ретуши фотографий? Этому вас научит практический видеокурс Александра Заморина и Софи Лебедевой, которые поделятся всем свои опытом и на практике научат вас обрабатывать фотографии.
    Продолжительность: 18: 59: 08
    Качество видео: PCRec
    Видео: AVC, 1280x720, ~1210 Kbps
    Аудио: AAC, 2 ch, 126 Kbps, 44.0 KHz, CBR
    Код:

    Общее
    Полное имя : K:1Ретушёр 2016. Начальный и продвинутый уровеньПрактика1 Профессиональное улучшение снимка без потери качестваПрофессиональное улучшение снимка без потери качества.mp4
    Формат : MPEG-4
    Профиль формата : Base Media/Version 2
    Идентификатор кодека : mp42 (M4V /mp42/isom)
    Размер файла : 197 Мбайт
    Продолжительность : 20 м.
    Общий поток : 1338 Кбит/сек
    Дата кодирования : UTC 2014-12-10 09:05:53
    Дата пометки : UTC 2014-12-10 09:05:53
    Видео
    Идентификатор : 1
    Формат : AVC
    Формат/Информация : Advanced Video Codec
    Профиль формата :High@L3.1
    Параметр CABAC формата : Да
    Параметр ReFrames формата : 4 кадра
    Идентификатор кодека : avc1
    Идентификатор кодека/Информация : Advanced Video Coding
    Продолжительность : 20 м.
    Продолжительность оригинала : 20 м.
    Битрейт : 1210 Кбит/сек
    Ширина : 1280 пикселей
    Высота : 720 пикселей
    Соотношение сторон : 16:9
    Режим частоты кадров : Постоянный
    Частота кадров : 15, 000 кадров/сек
    Цветовое пространство : YUV
    Субдискретизация насыщенности : 4:2:0
    Битовая глубина : 8 бит
    Тип развёртки : Прогрессивная
    Бит/(Пиксели*Кадры) : 0.088
    Размер потока : 179 Мбайт (90%)
    Размер потока оригинала : 179 Мбайт (90%)
    Язык : English
    Дата кодирования : UTC 2014-12-10 09:05:53
    Дата пометки : UTC 2014-12-10 09:05:53
    Цветовой диапазон : Limited
    Основные цвета : BT.709
    Характеристики трансфера : BT.709
    Коэффициенты матрицы : BT.709
    mdhd_Duration : 1237474
    Аудио
    Идентификатор : 2
    Формат : AAC
    Формат/Информация : Advanced Audio Codec
    Профиль формата : LC
    Идентификатор кодека : 40
    Продолжительность : 20 м.
    Продолжительность оригинала : 20 м.
    Вид битрейта : Постоянный
    Битрейт : 126 Кбит/сек
    Каналы : 2 канала
    Расположение каналов : Front: L R
    Частота : 44, 1 КГц
    Частота кадров : 43, 066 кадра/сек (1024 spf)
    Метод сжатия : С потерями
    Размер потока : 18, 5 Мбайт (9%)
    Размер потока оригинала : 18, 5 Мбайт (9%)
    Язык : English
    Дата кодирования : UTC 2014-12-10 09:05:53
    Дата пометки : UTC 2014-12-10 09:05:53
    mdhd_Duration : 1236824


    Скриншоты для ознакомления




    Александр Заморин и Софи Лебедева | Ретушёр 2016. Начальный и продвинутый уровень (2016) PCRec
    загрузка...
    Рейтинг →
     (голосов: 1, оценка 4/5, голосовать можно 1 раз )

    Другие торренты по теме:

  • Александр Заморин | От заката до рассвета (2014) PCRec скачать через торрент бесплатно
  • Александр Заморин | Мой первый зеркальный Canon (2012) PCRec
  • Александр Заморин | Ретушёр 2015 - Экспертный уровень (2014) PCRec скачать через торрент бесплатно
  • Александр Заморин | Креатив 4.0 + Реактивный старт в фотографии 2.0 (2015) PCRec [H.264] скачать через торрент бесплатно
  • Александр Заморин и Софи Лебедева | Чертова вспышка (2016) DVDRip
  • Александр Заморин, Софья Лебедева | Нестудийный портрет 2.0 [Уровни I-III] (2015) PCRec
  • Софи Лебедева и Александр Заморин | Летний портрет (2016) PCRec
  • Александр Заморин, Вадим Шемет, Софи Лебедева | Технологии фотомастерства 3.0 (2017) PCRec


    • Комментарии (0):

      Информация

      Информация

        Посетители, находящиеся в группе Гости, не могут оставлять комментарии в данной новости.

        ↓ Меню




        ↓ Опрос

        Вы добавили сайт в закладки?
        Да
        Нет


        Top 10 за месяц (Книги)

        Джиллиан Майклз | Знаменитая программа Джиллиан Майклз: Стройное и здоровое тело за 30 дней (2016) [FB2]

        (скачиваний: 54)
        И.Б. Фефилова | Антивозрастная медицина. Современная энциклопедия (2015) [PDF, EPUB]

        (скачиваний: 31)
        Михаил Диденко | Русский стиль выживания. Как остаться в живых одному в лесу (2017) [PDF, FB2]

        (скачиваний: 27)
        Михаил Лабковский | Хочу и буду: Принять себя, полюбить жизнь и стать счастливым (2017) [FB2, EPUB]

        (скачиваний: 24)
        Александр Клинге | Ленин. Самая правдивая биография Ильича (2017) [FB2, EPUB]

        (скачиваний: 23)
        Евгений Старухин | Цикл «Лесовик» [4 книги. Обновляемая] (2015-2017) [FB2]

        (скачиваний: 20)
        Давид Дубницкий | Жанровый НЮ-портрет (2016) PCRec

        (скачиваний: 20)
        Дэвид Агус | Завтра начинается сегодня. Как воспользоваться достижениями anti-age медицины (2017) [FB2, EPUB]

        (скачиваний: 20)
        Джон Дуглас, Марк Олшейкер | Психологический портрет убийцы. Методики ФБР (2016) [FB2, EPUB]

        (скачиваний: 19)
        Лидия Резник | 25 любимых специй (2017) [FB2]

        (скачиваний: 19)